#TITLE:Passion;
#SUBTITLE:;
#ARTIST:Se7en;
#TITLETRANSLIT:Passion;
#SUBTITLETRANSLIT:;
#ARTISTTRANSLIT:Se7en;
#CREDIT:;
#BANNER:Passion-bn.png;
#BACKGROUND:Passion-bg.png;
#LYRICSPATH:;
#CDTITLE:pm4cd.png;
#MUSIC:Passion.mp3;
#OFFSET:-0.020;
#SAMPLESTART:9.048;
#SAMPLELENGTH:20.000;
#SELECTABLE:YES;
#BPMS:0.000=101.030,156.750=202.050,164.750=101.030;
#STOPS:;
#BGCHANGES:;
// cache tags:
#FIRSTBEAT:0.750;
#LASTBEAT:337.250;
#SONGFILENAME:Songs/Music V.I.P ^_^/Passion/Passion.sm;
#HASMUSIC:1;
#HASBANNER:1;
#MUSICLENGTH:201.122;
// end cache tags

//---------------dance-single - ----------------
#NOTES:
     dance-single:
     :
     Hard:
     9:
     0.908,0.943,1.000,0.209,1.000,865.000,367.000,42.000,0.000,150.000:
0000
0000
0000
0101
0000
0101
0000
0000
0000
0100
0000
0001
0010
0000
1000
0000
,
0000
0100
0010
1001
0000
1001
0000
0000
0000
0100
0000
0010
0100
0000
0001
0000
,
0100
1000
0100
0011
0000
0011
0000
0000
0000
1000
0000
0010
0001
0000
0010
0000
,
0000
0001
0010
0200
0000
0001
0000
0000
0000
1000
0000
0320
1000
0101
1000
0101
,
1000
0101
1000
0131
0000
0101
0000
0110
0000
0010
0000
1000
0100
0000
0001
0110
,
0000
0001
0010
0101
0000
0101
0010
1100
0000
0010
0000
0100
0010
0000
1000
0101
,
0000
0001
0100
1010
0000
1010
0000
0011
0000
0100
0000
0010
0100
0000
0010
1100
,
0000
0001
0010
0102
0010
1100
0010
1100
0010
1100
0010
1203
0010
1001
0010
1001
,
0010
1001
0010
1301
0000
1001
0000
1100
0000
0001
0000
0010
1000
0000
0010
0101
,
0000
1000
0100
0011
0000
0011
0100
1001
0000
0010
0000
0001
0100
0000
0010
1100
,
0000
0010
0100
1001
0000
1001
0000
0110
0000
0001
0000
1000
0001
0000
1000
0101
,
0000
1000
0100
0012
0100
1010
0100
1010
0100
1010
0100
1023
0001
1100
0001
1100
,
0001
1100
0001
1130
0000
0001
0000
1010
0000
0000
0000
0100
0010
0000
0010
1100
,
0000
1000
0100
1010
0000
1010
0100
1001
0000
0000
0000
0100
0001
0000
1000
0101
,
0010
0001
1000
0110
0000
0110
0000
1001
0000
0010
0000
0100
1000
0000
0001
1010
,
0000
0010
0100
0021
1000
0101
1000
0101
1000
0101
1000
0132
1000
0110
1000
0110
,
1000
0110
1000
0113
0000
0110
0000
1001
0000
0000
0000
0010
0001
0000
0100
1001
,
0000
0001
0010
1100
0000
1001
0010
0101
0000
0000
0000
1000
0001
0000
0010
1100
,
0001
0010
0001
1100
0000
0001
0000
0010
0000
0100
0000
1000
0000
0100
0000
1001
,
0010
1000
0001
2100
0010
0101
0010
0101
0010
0101
0010
3201
1000
0011
1000
0011
,
1000
0011
1000
0311
0000
0011
0000
1010
0000
0001
0000
0100
0001
0000
0010
1001
,
0000
0010
0100
0011
0000
0110
0001
1010
0000
0000
0000
0100
1000
0000
0100
0011
,
0100
0010
0001
1010
0000
1010
0000
0101
0000
0001
0000
0010
0100
0000
0100
0011
,
0000
1000
0100
0102
1000
0110
1000
0110
1000
0110
1000
0213
0001
1010
0001
1010
,
0001
1010
0001
1310
0000
0000
0000
0110
0000
0000
0000
0101
0000
0000
0000
1001
,
0000
0000
0000
0011
0000
0100
0000
1000
0000
0010
0000
0100
0000
0011
0000
0100
,
0000
1000
0000
0111
0000
0110
0000
1001
0000
0100
0000
0001
0010
0000
1000
0101
,
0000
0100
0010
1001
0000
1001
0100
0101
0000
0100
0000
0010
0001
0000
0010
1100
,
0000
0010
0001
1100
0000
0110
0000
0011
0000
1000
0000
0001
0010
0000
0100
1010
,
0000
0010
0100
2001
0100
0011
0100
0011
0100
0011
0100
3021
1000
0101
1000
0101
,
1000
0101
1000
0131
0000
0101
0000
0110
0000
1000
0000
0001
1000
0000
0001
1010
,
0000
0100
0010
1100
0000
0101
0010
1100
0000
0001
0000
0100
1000
0000
0001
0110
,
0000
1000
0100
0011
0000
0011
0000
1100
0000
0010
0000
0010
0001
0000
0010
1001
,
0000
0010
1000
0210
0001
1010
0001
1010
0001
1010
0001
1320
0001
1100
0001
1100
,
0001
1100
0001
1130
0000
1100
0000
0011
0000
0100
0000
0000
0010
0000
0000
1001
,
0000
0000
0000
0110
0000
0110
0000
0101
0000
1000
0000
0000
0100
0000
0000
0011
,
0000
0000
0000
0100
0000
0010
0100
1010
0000
0001
0010
0100
0010
0002
0000
0000
,
0000
0013
0100
0021
1000
0101
1000
0101
1000
0101
1000
0231
0010
1001
0010
1001
,
0010
1001
0010
1301
0000
1001
0000
1010
0000
0000
0000
0100
0010
0000
0010
1100
,
0000
0001
0100
2010
0000
0000
0000
0001
0000
0010
0000
0000
0000
0010
0000
0001
,
0000
0000
0000
0010
0000
0100
0000
0010
0000
0100
0000
0000
0000
0001
0000
0010
,
0000
0100
0000
3011
0000
0011
0000
0110
0000
0001
0000
0100
0000
1000
0100
0000
,
0000
0001
0000
1020
0100
1001
0100
1001
0100
1001
0100
1032
0010
1100
0010
1100
,
0010
1100
0010
1103
0000
1100
0000
0101
0000
0000
0000
0010
0001
0000
0100
1001
,
0000
0001
0010
1100
0000
1001
0010
0101
0000
0000
0000
1000
0001
0000
0010
1100
,
0001
0010
0001
1100
0000
0001
0000
1010
0000
0100
0000
1000
0001
0000
0010
1100
,
0000
0100
0010
1002
0010
1100
0010
1100
0010
1100
0010
1203
0000
0010
0000
0001
,
0010
1000
0000
0311
0000
0011
0000
1001
0000
0100
0000
0010
0001
0000
0100
1001
,
0000
1000
0010
0101
0000
1100
0010
1001
0000
0000
0000
0010
0100
0000
0001
1010
,
0100
1000
0010
1001
0000
0110
0000
1010
0000
0100
0000
0001
0010
0100
0010
0101
,
0010
0001
0010
0102
0010
1100
0010
1100
0010
1100
0010
1203
0010
1001
0010
1001
,
0010
1001
0010
1301
0000
0000
0000
0011
0000
0000
0000
1001
0000
0000
0000
1100
,
0000
0000
0000
0101
0000
0010
0000
1000
0100
0000
0000
0100
0000
0101
0000
1000
,
0000
0100
0000
1011
0000
1001
0000
1010
0000
0001
0000
0010
0100
0000
1000
0101
,
0000
1000
0100
1001
0000
0110
0010
1001
0000
0100
0000
0001
0010
0000
0100
1001
,
0000
0010
0001
1100
0000
0110
0000
1001
0000
0010
0000
1000
0100
0000
0001
1010
,
0000
0100
1000
0120
1000
0101
1000
0101
1000
0101
1000
0132
0010
1100
0010
1100
,
0010
1100
0010
1103
0000
1100
0000
0110
0000
1000
0000
0010
1000
0000
0001
0110
,
0000
0001
0010
1100
0000
1010
0100
0011
0000
1000
0000
0010
0100
0000
0010
1001
,
0000
1000
0100
0011
0000
1010
0000
0101
0000
0010
0000
0100
0010
0000
0010
0101
,
0000
0010
0001
0210
1000
0011
1000
0011
1000
0011
1000
0312
0100
1010
0100
1010
,
0100
1010
0100
1013
0000
0101
0000
0011
0000
0100
0000
0000
0001
0000
0000
1010
,
0000
0000
0000
1100
0000
0110
0000
0000
0000
0001
0000
0000
0010
0000
0000
1010
,
0000
0000
0000
1000
0000
0100
0010
0101
0000
0001
0001
1000
0100
0010
0000
0000
,
0000
0000
0000
0200
0000
0000
0000
0011
0000
0000
0000
2300
0000
0000
0000
0101
,
0000
0000
0000
3020
0000
0000
0000
1001
0000
0000
0000
0032
0000
0000
0000
0110
,
0000
0000
0000
2003
0000
0000
0000
0011
0000
0000
0000
3020
0000
0000
0000
1001
,
0000
0001
0100
1131
0000
0101
0000
1010
0000
0001
0000
0100
0010
0000
1000
0000
,
0010
0001
0010
0101
0000
0101
0000
0110
0000
1000
0000
0010
0100
0000
0001
0000
,
0010
0100
1000
0101
0000
0101
0010
1100
0000
0100
0000
0010
0001
0000
0100
0000
,
1000
0100
0010
1001
0000
1001
0000
0110
0000
0000
0000
0000
0000
0101
0000
1010
,
0101
0000
0000
0210
1000
0001
1000
0001
1000
0001
1000
0321
1000
0100
1000
0100
,
1000
0100
1000
0131
0000
0000
0000
1001
0000
0000
0000
1010
0000
0000
0000
0110
,
0000
0000
0000
0001
0000
0010
0000
0100
1000
0000
0000
0100
0000
0001
0000
0010
,
0000
0100
0000
1011
0000
1001
0000
1010
0000
0001
0000
0010
1000
0000
0100
0011
,
0000
0100
0010
1100
0000
1001
0010
0011
0000
0100
0000
0001
0010
0000
0010
1100
,
0000
0010
0001
0110
0000
1001
0000
0101
0000
0010
0000
1000
0100
0000
0001
0110
,
0000
1000
0100
0012
1100
0110
1100
0110
1100
0110
1100
0213
1001
1010
1001
1010
,
1001
1010
1001
1310
0000
0110
0000
0101
0000
0100
0000
0001
1000
0000
0001
0110
,
0000
0001
0100
0011
0000
1010
0010
0101
0000
1000
0000
1000
0001
0000
0001
0110
,
0000
0100
0010
1100
0000
1100
0000
0011
0000
0100
0000
0010
0001
0000
0010
1001
,
0000
0010
0100
0021
1100
1001
1100
1001
1100
1001
1100
2031
0011
0110
0011
0110
,
0011
0110
0011
3110
0000
0110
0000
1001
0000
0010
0000
0000
1000
0000
0000
0011
,
0000
0000
0000
1100
0000
1100
0000
0000
0000
0001
0000
0000
0010
0000
0000
1001
,
0000
0010
0100
0101
0000
0101
0000
0000
0000
0000
0000
0000
0000
0000
0000
0000
;

//---------------dance-single - ----------------
#NOTES:
     dance-single:
     :
     Medium:
     1:
     0.000,0.000,0.000,0.000,0.000,0.000,0.000,0.000,0.000,0.000:
0000
0000
0000
0000
;
